999
DXF file: yoyo.dxf
999
Pro/ENGINEER 2013050 by Parametric Technology Corporation
  0
SECTION
  2
HEADER
  9
$ACADVER
  1
AC1014
  9
$DWGCODEPAGE
  3
ANSI_1252
  9
$EXTMAX
 10
297.0
 20
210.0
 30
0.0
  9
$EXTMIN
 10
0.0
 20
0.0
 30
0.0
  9
$LIMMIN
 10
0.0
 20
0.0
  9
$LIMMAX
 10
297.0
 20
210.0
  9
$VIEWCTR
 10
148.5
 20
105.0
  9
$VIEWSIZE
 40
210.0
  9
$CLAYER
  8
0
  9
$LTSCALE
 40
16.335
  9
$CELTYPE
  6
BYLAYER
  9
$DIMSCALE
 40
1.0
  9
$DIMASZ
 40
4.0
  9
$DIMEXO
 40
1.6
  9
$DIMDLI
 40
11.286
  9
$DIMEXE
 40
3.2
  9
$DIMCEN
 40
2.673
  9
$DIMLFAC
 40
1.0
  9
$DIMBLK
  1
_ARROW_FILLED
  9
$DIMTXT
 40
3.5
  9
$DIMTOL
 70
1
  9
$DIMLIM
 70
0
  9
$DIMTFAC
 40
1.0
  9
$DIMTP
 40
0.01
  9
$DIMTM
 40
0.01
  9
$DIMGAP
 40
0.625
  9
$PDMODE
 70
3
  9
$PDSIZE
 40
0.3
  9
$HANDSEED
  5
2A1
  9
$TILEMODE
 70
1
  9
$MEASUREMENT
 70
1
  0
ENDSEC
  0
SECTION
  2
CLASSES
  0
ENDSEC
  0
SECTION
  2
TABLES
  0
TABLE
  2
VPORT
  5
8
100
AcDbSymbolTable
 70
2
  0
VPORT
  5
1F4
100
AcDbSymbolTableRecord
100
AcDbViewportTableRecord
  2
*ACTIVE
 70
0
 10
0.0
 20
0.0
 11
1.0
 21
1.0
 12
148.5
 22
105.0
 13
0.0
 23
0.0
 14
1.0
 24
1.0
 15
0.0
 25
0.0
 16
0.0
 26
0.0
 36
1.0
 17
0.0
 27
0.0
 37
0.0
 40
210.0
 41
1.4142857143
 42
50.0
 43
0.0
 44
0.0
 50
0.0
 51
0.0
 71
0
 72
100
 73
1
 74
1
 75
0
 76
0
 77
0
 78
0
  0
ENDTAB
  0
TABLE
  2
LTYPE
  5
5
100
AcDbSymbolTable
 70
6
  0
LTYPE
  5
14
100
AcDbSymbolTableRecord
100
AcDbLinetypeTableRecord
  2
BYBLOCK
 70
0
  3

 72
65
 73
0
 40
0.0
  0
LTYPE
  5
15
100
AcDbSymbolTableRecord
100
AcDbLinetypeTableRecord
  2
BYLAYER
 70
0
  3

 72
65
 73
0
 40
0.0
  0
LTYPE
  5
16
100
AcDbSymbolTableRecord
100
AcDbLinetypeTableRecord
  2
CONTINUOUS
 70
64
  3
Solid line
 72
65
 73
0
 40
0.0
  0
LTYPE
  5
1F5
100
AcDbSymbolTableRecord
100
AcDbLinetypeTableRecord
  2
CENTER
 70
64
  3
____ _ ____ _ ____ _ ____ _ ____ _ ____ _ ____
 72
65
 73
4
 40
0.6
 49
0.375
 74
0
 49
-0.075
 74
0
 49
0.075
 74
0
 49
-0.075
 74
0
  0
LTYPE
  5
1F6
100
AcDbSymbolTableRecord
100
AcDbLinetypeTableRecord
  2
HIDDEN
 70
64
  3
- - - - - - - - - - - - - - - - - - - -
 72
65
 73
2
 40
0.2
 49
0.1
 74
0
 49
-0.1
 74
0
  0
LTYPE
  5
1F7
100
AcDbSymbolTableRecord
100
AcDbLinetypeTableRecord
  2
PHANTOM
 70
64
  3
_____ _ _ _____ _ _ _____ _ _ _____
 72
65
 73
6
 40
0.8
 49
0.45
 74
0
 49
-0.05
 74
0
 49
0.1
 74
0
 49
-0.05
 74
0
 49
0.1
 74
0
 49
-0.05
 74
0
  0
LTYPE
  5
1F8
100
AcDbSymbolTableRecord
100
AcDbLinetypeTableRecord
  2
DOT
 70
64
  3
. . . . . . . . . . . . . . . . . . . .
 72
65
 73
2
 40
0.2
 49
0.1
 74
0
 49
-0.1
 74
0
  0
LTYPE
  5
1F9
100
AcDbSymbolTableRecord
100
AcDbLinetypeTableRecord
  2
DASHED
 70
64
  3
- - - - - - - - - - - - - - - - - - - -
 72
65
 73
2
 40
0.2
 49
0.1
 74
0
 49
-0.1
 74
0
  0
ENDTAB
  0
TABLE
  2
LAYER
  5
2
100
AcDbSymbolTable
 70
36
  0
LAYER
  5
10
100
AcDbSymbolTableRecord
100
AcDbLayerTableRecord
  2
0
 70
0
 62
7
  6
CONTINUOUS
  0
LAYER
  5
1FA
100
AcDbSymbolTableRecord
100
AcDbLayerTableRecord
  2
DEFAULT_1
 70
0
 62
7
  6
CENTER
  0
LAYER
  5
1FB
100
AcDbSymbolTableRecord
100
AcDbLayerTableRecord
  2
DEFAULT_2
 70
0
 62
8
  6
HIDDEN
  0
LAYER
  5
1FC
100
AcDbSymbolTableRecord
100
AcDbLayerTableRecord
  2
DEFAULT_3
 70
0
 62
7
  6
PHANTOM
  0
LAYER
  5
1FD
100
AcDbSymbolTableRecord
100
AcDbLayerTableRecord
  2
ASSI
 70
0
 62
7
  6
CONTINUOUS
  0
LAYER
  5
1FE
100
AcDbSymbolTableRecord
100
AcDbLayerTableRecord
  2
CSYS
 70
0
 62
7
  6
CONTINUOUS
  0
LAYER
  5
1FF
100
AcDbSymbolTableRecord
100
AcDbLayerTableRecord
  2
DETTAGLI
 70
0
 62
7
  6
CONTINUOUS
  0
LAYER
  5
200
100
AcDbSymbolTableRecord
100
AcDbLayerTableRecord
  2
GEOM
 70
0
 62
7
  6
CONTINUOUS
  0
LAYER
  5
201
100
AcDbSymbolTableRecord
100
AcDbLayerTableRecord
  2
NOGEOM
 70
0
 62
7
  6
CONTINUOUS
  0
LAYER
  5
202
100
AcDbSymbolTableRecord
100
AcDbLayerTableRecord
  2
PIANI
 70
0
 62
7
  6
CONTINUOUS
  0
LAYER
  5
203
100
AcDbSymbolTableRecord
100
AcDbLayerTableRecord
  2
QUOTE
 70
0
 62
7
  6
CONTINUOUS
  0
LAYER
  5
204
100
AcDbSymbolTableRecord
100
AcDbLayerTableRecord
  2
SUPERFICI
 70
0
 62
7
  6
CONTINUOUS
  0
ENDTAB
  0
TABLE
  2
STYLE
  5
3
100
AcDbSymbolTable
 70
1
  0
STYLE
  5
11
100
AcDbSymbolTableRecord
100
AcDbTextStyleTableRecord
  2
STANDARD
 70
0
 40
0.0
 41
0.8
 50
0.0
 71
0
 42
0.2
  3
txt
  4

  0
STYLE
  5
205
100
AcDbSymbolTableRecord
100
AcDbTextStyleTableRecord
  2
TEXTSTYLE_1
 70
0
 40
0.0
 41
0.8
 50
0.0
 71
0
 42
0.2
  3
gdt
  4

  0
ENDTAB
  0
TABLE
  2
VIEW
  5
6
100
AcDbSymbolTable
 70
0
  0
ENDTAB
  0
TABLE
  2
UCS
  5
7
100
AcDbSymbolTable
 70
0
  0
ENDTAB
  0
TABLE
  2
APPID
  5
9
100
AcDbSymbolTable
 70
1
  0
APPID
  5
206
100
AcDbSymbolTableRecord
100
AcDbRegAppTableRecord
  2
ACAD
 70
0
  0
ENDTAB
  0
TABLE
  2
BLOCK_RECORD
  5
1
100
AcDbSymbolTable
 70
0
  0
BLOCK_RECORD
  5
1F
100
AcDbSymbolTableRecord
100
AcDbBlockTableRecord
  2
*MODEL_SPACE
  0
BLOCK_RECORD
  5
1B
100
AcDbSymbolTableRecord
100
AcDbBlockTableRecord
  2
*PAPER_SPACE
  0
BLOCK_RECORD
  5
207
100
AcDbSymbolTableRecord
100
AcDbBlockTableRecord
  2
_ARROW_FILLED
  0
BLOCK_RECORD
  5
208
100
AcDbSymbolTableRecord
100
AcDbBlockTableRecord
  2
*D0
  0
BLOCK_RECORD
  5
209
100
AcDbSymbolTableRecord
100
AcDbBlockTableRecord
  2
*D1
  0
BLOCK_RECORD
  5
20A
100
AcDbSymbolTableRecord
100
AcDbBlockTableRecord
  2
*D2
  0
BLOCK_RECORD
  5
20B
100
AcDbSymbolTableRecord
100
AcDbBlockTableRecord
  2
*D3
  0
BLOCK_RECORD
  5
20C
100
AcDbSymbolTableRecord
100
AcDbBlockTableRecord
  2
*D4
  0
ENDTAB
  0
TABLE
  2
DIMSTYLE
  5
A
100
AcDbSymbolTable
 70
1
  0
DIMSTYLE
105
20D
100
AcDbSymbolTableRecord
100
AcDbDimStyleTableRecord
  2
STANDARD
 70
0
  3

  4

  5
_ARROW_FILLED
  6
_ARROW_FILLED
  7
_ARROW_FILLED
 40
1.0
 41
4.0
 42
1.6
 43
0.38
 44
3.2
 45
0.0
 46
0.0
 47
0.01
 48
0.01
140
3.5
141
0.09
142
0.0
143
25.4
144
1.0
145
0.0
146
1.0
147
0.625
 71
1.0
 72
0.0
 73
0
 74
0
 75
0
 76
0
 77
1
 78
8
170
0
171
2
172
0
173
0
174
0
175
0
176
0
177
0
178
0
270
2
271
2
272
2
273
2
274
2
275
0
280
0
281
0
282
0
283
1
284
8
285
0
286
0
287
3
288
0
340
11
  0
DIMSTYLE
105
20E
100
AcDbSymbolTableRecord
100
AcDbDimStyleTableRecord
  2
DIMSTYLE_1
 70
0
  3

  4

  5
_ARROW_FILLED
  6
_ARROW_FILLED
  7
_ARROW_FILLED
 40
1.0
 41
4.0
 42
1.6
 43
0.38
 44
3.2
 45
0.0
 46
0.0
 47
0.3
 48
0.3
140
3.5
141
0.09
142
0.0
143
25.4
144
1.0
145
0.0
146
1.0
147
0.875
 71
0.0
 72
0.0
 73
0
 74
0
 75
0
 76
0
 77
1
 78
8
170
0
171
2
172
0
173
0
174
0
175
0
176
0
177
0
178
0
270
2
271
2
272
2
273
2
274
2
275
0
280
0
281
0
282
0
283
1
284
8
285
0
286
0
287
3
288
0
340
11
  0
DIMSTYLE
105
20F
100
AcDbSymbolTableRecord
100
AcDbDimStyleTableRecord
  2
DIMSTYLE_2
 70
0
  3
<>
  4

  5
_ARROW_FILLED
  6
_ARROW_FILLED
  7
_ARROW_FILLED
 40
1.0
 41
4.0
 42
1.6
 43
0.38
 44
3.2
 45
0.0
 46
0.0
 47
0.3
 48
0.3
140
3.5
141
0.09
142
0.0
143
25.4
144
1.0
145
0.0
146
1.0
147
0.625
 71
0.0
 72
0.0
 73
0
 74
0
 75
0
 76
0
 77
1
 78
8
170
0
171
2
172
0
173
0
174
0
175
0
176
0
177
0
178
0
270
2
271
2
272
2
273
2
274
2
275
0
280
0
281
0
282
0
283
1
284
8
285
0
286
0
287
3
288
0
340
11
  0
DIMSTYLE
105
210
100
AcDbSymbolTableRecord
100
AcDbDimStyleTableRecord
  2
DIMSTYLE_3
 70
0
  3

  4

  5
_ARROW_FILLED
  6
_ARROW_FILLED
  7
_ARROW_FILLED
 40
1.0
 41
4.0
 42
1.6
 43
0.38
 44
3.2
 45
0.0
 46
0.0
 47
0.2
 48
0.2
140
3.5
141
0.09
142
0.0
143
25.4
144
1.0
145
0.0
146
1.0
147
0.875
 71
0.0
 72
0.0
 73
0
 74
0
 75
0
 76
0
 77
1
 78
8
170
0
171
2
172
0
173
0
174
0
175
0
176
0
177
0
178
0
270
2
271
2
272
2
273
2
274
2
275
0
280
0
281
0
282
0
283
1
284
8
285
0
286
0
287
3
288
0
340
11
  0
ENDTAB
  0
ENDSEC
  0
SECTION
  2
BLOCKS
  0
BLOCK
  5
20
100
AcDbEntity
  8
0
100
AcDbBlockBegin
  2
*MODEL_SPACE
 70
0
 10
0.0
 20
0.0
 30
0.0
  3
*MODEL_SPACE
  1

  0
ENDBLK
  5
21
100
AcDbEntity
  8
0
100
AcDbBlockEnd
  0
BLOCK
  5
1C
100
AcDbEntity
  8
0
100
AcDbBlockBegin
  2
*PAPER_SPACE
 70
0
 10
0.0
 20
0.0
 30
0.0
  3
*PAPER_SPACE
  1

  0
ENDBLK
  5
1D
100
AcDbEntity
  8
0
100
AcDbBlockEnd
  0
BLOCK
  5
211
100
AcDbEntity
  8
0
100
AcDbBlockBegin
  2
_ARROW_FILLED
 70
64
 10
0.0
 20
0.0
  3
_ARROW_FILLED
  1

  0
SOLID
  5
212
100
AcDbEntity
  8
0
  6
BYBLOCK
 62
0
100
AcDbTrace
 10
0.0
 20
0.0
 11
-1.0
 21
0.1875
 12
-1.0
 22
-0.1875
 13
-1.0
 23
-0.1875
  0
ENDBLK
  5
213
100
AcDbEntity
  8
0
  6
BYBLOCK
 62
0
100
AcDbBlockEnd
  0
BLOCK
  5
214
100
AcDbEntity
  8
QUOTE
100
AcDbBlockBegin
 62
2
  6
CONTINUOUS
  2
*D0
 70
65
 10
0.0
 20
0.0
  3
*D0
  1

  0
TEXT
  5
215
100
AcDbEntity
  8
QUOTE
100
AcDbText
 62
2
  6
CONTINUOUS
 10
219.1153189143
 20
40.6982139527
  7
STANDARD
 40
3.5
  1
34
 72
5
 11
224.7153189143
 21
40.6982139527
100
AcDbText
  0
LINE
  5
216
100
AcDbEntity
  8
QUOTE
100
AcDbLine
 62
2
  6
CONTINUOUS
 10
238.9153189143
 20
51.8889083438
 11
238.9153189143
 21
36.6232139527
  0
LINE
  5
217
100
AcDbEntity
  8
QUOTE
100
AcDbLine
 62
2
  6
CONTINUOUS
 10
204.9153189143
 20
51.8889083438
 11
204.9153189143
 21
36.6232139527
  0
LINE
  5
218
100
AcDbEntity
  8
QUOTE
100
AcDbLine
 62
2
  6
CONTINUOUS
 10
238.9153189143
 20
39.8232139527
 11
221.9153189143
 21
39.8232139527
  0
LINE
  5
219
100
AcDbEntity
  8
QUOTE
100
AcDbLine
 62
2
  6
CONTINUOUS
 10
204.9153189143
 20
39.8232139527
 11
221.9153189143
 21
39.8232139527
  0
INSERT
  5
21A
100
AcDbEntity
  8
QUOTE
100
AcDbBlockReference
 62
2
  6
CONTINUOUS
  2
_ARROW_FILLED
 10
238.9153189143
 20
39.8232139527
 41
4.0
 42
4.0
 43
4.0
  0
INSERT
  5
21B
100
AcDbEntity
  8
QUOTE
100
AcDbBlockReference
 62
2
  6
CONTINUOUS
  2
_ARROW_FILLED
 10
204.9153189143
 20
39.8232139527
 41
4.0
 42
4.0
 43
4.0
 50
180.0
  0
ENDBLK
  5
21C
100
AcDbEntity
  8
0
  6
BYBLOCK
 62
0
100
AcDbBlockEnd
  0
BLOCK
  5
21D
100
AcDbEntity
  8
QUOTE
100
AcDbBlockBegin
 62
2
  6
CONTINUOUS
  2
*D1
 70
65
 10
0.0
 20
0.0
  3
*D1
  1

  0
TEXT
  5
21E
100
AcDbEntity
  8
QUOTE
100
AcDbText
 62
2
  6
CONTINUOUS
 10
35.086887508
 20
98.1889083438
  7
STANDARD
 40
3.5
  1
97
 50
90.0
 72
5
 11
35.086887508
 21
103.7889083438
100
AcDbText
  0
LINE
  5
21F
100
AcDbEntity
  8
QUOTE
100
AcDbLine
 62
2
  6
CONTINUOUS
 10
67.286844308
 20
149.4889083438
 11
32.761887508
 21
149.4889083438
  0
LINE
  5
220
100
AcDbEntity
  8
QUOTE
100
AcDbLine
 62
2
  6
CONTINUOUS
 10
95.786844308
 20
52.4889083438
 11
32.761887508
 21
52.4889083438
  0
LINE
  5
221
100
AcDbEntity
  8
QUOTE
100
AcDbLine
 62
2
  6
CONTINUOUS
 10
35.961887508
 20
149.4889083438
 11
35.961887508
 21
100.9889083438
  0
LINE
  5
222
100
AcDbEntity
  8
QUOTE
100
AcDbLine
 62
2
  6
CONTINUOUS
 10
35.961887508
 20
52.4889083438
 11
35.961887508
 21
100.9889083438
  0
INSERT
  5
223
100
AcDbEntity
  8
QUOTE
100
AcDbBlockReference
 62
2
  6
CONTINUOUS
  2
_ARROW_FILLED
 10
35.961887508
 20
149.4889083438
 41
4.0
 42
4.0
 43
4.0
 50
90.0
  0
INSERT
  5
224
100
AcDbEntity
  8
QUOTE
100
AcDbBlockReference
 62
2
  6
CONTINUOUS
  2
_ARROW_FILLED
 10
35.961887508
 20
52.4889083438
 41
4.0
 42
4.0
 43
4.0
 50
270.0
  0
ENDBLK
  5
225
100
AcDbEntity
  8
0
  6
BYBLOCK
 62
0
100
AcDbBlockEnd
  0
BLOCK
  5
226
100
AcDbEntity
  8
QUOTE
100
AcDbBlockBegin
 62
2
  6
CONTINUOUS
  2
*D2
 70
65
 10
0.0
 20
0.0
  3
*D2
  1

  0
TEXT
  5
227
100
AcDbEntity
  8
QUOTE
100
AcDbText
 62
2
  6
CONTINUOUS
 10
122.2816585547
 20
140.8495276586
  7
STANDARD
 40
3.5
  1
R
 50
61.8399938776
 72
5
 11
123.6030778934
 21
143.3181003092
100
AcDbText
  0
TEXT
  5
228
100
AcDbEntity
  8
QUOTE
100
AcDbText
 62
2
  6
CONTINUOUS
 10
123.6030778934
 20
143.3181003092
  7
STANDARD
 40
3.5
  1
40
 50
61.8399938776
 72
5
 11
126.2459165707
 21
148.2552456105
100
AcDbText
  0
LINE
  5
229
100
AcDbEntity
  8
QUOTE
100
AcDbLine
 62
2
  6
CONTINUOUS
 10
116.2642634317
 20
127.7542319242
 11
127.017345524
 21
147.8423020671
  0
INSERT
  5
22A
100
AcDbEntity
  8
QUOTE
100
AcDbBlockReference
 62
2
  6
CONTINUOUS
  2
_ARROW_FILLED
 10
116.2642634317
 20
127.7542319242
 41
4.0
 42
4.0
 43
4.0
 50
241.8399938776
  0
ENDBLK
  5
22B
100
AcDbEntity
  8
0
  6
BYBLOCK
 62
0
100
AcDbBlockEnd
  0
BLOCK
  5
22C
100
AcDbEntity
  8
QUOTE
100
AcDbBlockBegin
 62
2
  6
CONTINUOUS
  2
*D3
 70
65
 10
0.0
 20
0.0
  3
*D3
  1

  0
TEXT
  5
22D
100
AcDbEntity
  8
QUOTE
100
AcDbText
 62
2
  6
CONTINUOUS
 10
52.4532610985
 20
158.4071041153
  7
TEXTSTYLE_1
 40
3.5
  1
n
 72
5
 11
57.1199277652
 21
158.4071041153
100
AcDbText
  0
TEXT
  5
22E
100
AcDbEntity
  8
QUOTE
100
AcDbText
 62
2
  6
CONTINUOUS
 10
57.1199277652
 20
158.4071041153
  7
STANDARD
 40
3.5
  1
18
 72
5
 11
62.7199277652
 21
158.4071041153
100
AcDbText
  0
LINE
  5
22F
100
AcDbEntity
  8
QUOTE
100
AcDbLine
 62
2
  6
CONTINUOUS
 10
86.886844308
 20
148.5889083438
 11
86.886844308
 21
160.7321041153
  0
LINE
  5
230
100
AcDbEntity
  8
QUOTE
100
AcDbLine
 62
2
  6
CONTINUOUS
 10
68.886844308
 20
148.5889083438
 11
68.886844308
 21
160.7321041153
  0
LINE
  5
231
100
AcDbEntity
  8
QUOTE
100
AcDbLine
 62
2
  6
CONTINUOUS
 10
86.886844308
 20
157.5321041153
 11
77.886844308
 21
157.5321041153
  0
LINE
  5
232
100
AcDbEntity
  8
QUOTE
100
AcDbLine
 62
2
  6
CONTINUOUS
 10
68.886844308
 20
157.5321041153
 11
77.886844308
 21
157.5321041153
  0
LINE
  5
233
100
AcDbEntity
  8
QUOTE
100
AcDbLine
 62
2
  6
CONTINUOUS
 10
77.886844308
 20
157.5321041153
 11
52.4532610985
 21
157.5321041153
  0
INSERT
  5
234
100
AcDbEntity
  8
QUOTE
100
AcDbBlockReference
 62
2
  6
CONTINUOUS
  2
_ARROW_FILLED
 10
86.886844308
 20
157.5321041153
 41
4.0
 42
4.0
 43
4.0
  0
INSERT
  5
235
100
AcDbEntity
  8
QUOTE
100
AcDbBlockReference
 62
2
  6
CONTINUOUS
  2
_ARROW_FILLED
 10
68.886844308
 20
157.5321041153
 41
4.0
 42
4.0
 43
4.0
 50
180.0
  0
ENDBLK
  5
236
100
AcDbEntity
  8
0
  6
BYBLOCK
 62
0
100
AcDbBlockEnd
  0
BLOCK
  5
237
100
AcDbEntity
  8
QUOTE
100
AcDbBlockBegin
 62
2
  6
CONTINUOUS
  2
*D4
 70
65
 10
0.0
 20
0.0
  3
*D4
  1

  0
TEXT
  5
238
100
AcDbEntity
  8
QUOTE
100
AcDbText
 62
2
  6
CONTINUOUS
 10
104.186844308
 20
31.6652391047
  7
STANDARD
 40
3.5
  1
102
 72
5
 11
112.586844308
 21
31.6652391047
100
AcDbText
  0
LINE
  5
239
100
AcDbEntity
  8
QUOTE
100
AcDbLine
 62
2
  6
CONTINUOUS
 10
159.386844308
 20
86.8889083438
 11
159.386844308
 21
27.5902391047
  0
LINE
  5
23A
100
AcDbEntity
  8
QUOTE
100
AcDbLine
 62
2
  6
CONTINUOUS
 10
57.386844308
 20
90.8889083438
 11
57.386844308
 21
27.5902391047
  0
LINE
  5
23B
100
AcDbEntity
  8
QUOTE
100
AcDbLine
 62
2
  6
CONTINUOUS
 10
159.386844308
 20
30.7902391047
 11
108.386844308
 21
30.7902391047
  0
LINE
  5
23C
100
AcDbEntity
  8
QUOTE
100
AcDbLine
 62
2
  6
CONTINUOUS
 10
57.386844308
 20
30.7902391047
 11
108.386844308
 21
30.7902391047
  0
INSERT
  5
23D
100
AcDbEntity
  8
QUOTE
100
AcDbBlockReference
 62
2
  6
CONTINUOUS
  2
_ARROW_FILLED
 10
159.386844308
 20
30.7902391047
 41
4.0
 42
4.0
 43
4.0
  0
INSERT
  5
23E
100
AcDbEntity
  8
QUOTE
100
AcDbBlockReference
 62
2
  6
CONTINUOUS
  2
_ARROW_FILLED
 10
57.386844308
 20
30.7902391047
 41
4.0
 42
4.0
 43
4.0
 50
180.0
  0
ENDBLK
  5
23F
100
AcDbEntity
  8
0
  6
BYBLOCK
 62
0
100
AcDbBlockEnd
  0
ENDSEC
  0
SECTION
  2
ENTITIES
  0
DIMENSION
  5
240
100
AcDbEntity
  8
QUOTE
100
AcDbDimension
 62
2
  6
CONTINUOUS
  2
*D0
 10
204.9153189143
 20
39.8232139527
 11
221.9153189143
 21
39.8232139527
 70
160
  3
DIMSTYLE_1
100
AcDbAlignedDimension
 13
238.9153189143
 23
53.4889083438
 14
204.9153189143
 24
53.4889083438
 50
180.0
100
AcDbRotatedDimension
  0
DIMENSION
  5
241
100
AcDbEntity
  8
QUOTE
100
AcDbDimension
 62
2
  6
CONTINUOUS
  2
*D1
 10
35.961887508
 20
52.4889083438
 11
35.961887508
 21
100.9889083438
 70
160
  3
DIMSTYLE_1
100
AcDbAlignedDimension
 13
68.886844308
 23
149.4889083438
 14
97.386844308
 24
52.4889083438
 50
270.0
100
AcDbRotatedDimension
  0
DIMENSION
  5
242
100
AcDbEntity
  8
QUOTE
100
AcDbDimension
 62
2
  6
CONTINUOUS
  2
*D2
 10
97.386844308
 20
92.4889083438
 11
122.7209296561
 21
145.3782737212
 70
164
  1
R<>
  3
DIMSTYLE_2
100
AcDbRadialDimension
 15
116.2642634317
 25
127.7542319242
  0
DIMENSION
  5
243
100
AcDbEntity
  8
QUOTE
100
AcDbDimension
 62
2
  6
CONTINUOUS
  2
*D3
 10
68.886844308
 20
157.5321041153
 11
57.5865944318
 21
157.5321041153
 70
160
  1
%%c<>
  3
DIMSTYLE_3
100
AcDbAlignedDimension
 13
86.886844308
 23
146.9889083438
 14
68.886844308
 24
146.9889083438
 50
180.0
100
AcDbRotatedDimension
  0
DIMENSION
  5
244
100
AcDbEntity
  8
QUOTE
100
AcDbDimension
 62
2
  6
CONTINUOUS
  2
*D4
 10
57.386844308
 20
30.7902391047
 11
108.386844308
 21
30.7902391047
 70
160
  3
DIMSTYLE_1
100
AcDbAlignedDimension
 13
159.386844308
 23
88.4889083438
 14
57.386844308
 24
92.4889083438
 50
180.0
100
AcDbRotatedDimension
  0
TEXT
  5
245
100
AcDbEntity
  8
DETTAGLI
100
AcDbText
 62
2
  6
CONTINUOUS
 10
119.7907433036
 20
10.5657600446
  7
STANDARD
 40
8.0
  1
yoyo
 72
5
 11
145.3907433036
 21
10.5657600446
100
AcDbText
  0
LINE
  5
246
100
AcDbEntity
  8
0
100
AcDbLine
 62
7
  6
CONTINUOUS
 10
0.0
 20
0.0
 11
0.0
 21
210.0
  0
LINE
  5
247
100
AcDbEntity
  8
0
100
AcDbLine
 62
7
  6
CONTINUOUS
 10
0.0
 20
0.0
 11
297.0
 21
0.0
  0
LINE
  5
248
100
AcDbEntity
  8
0
100
AcDbLine
 62
7
  6
CONTINUOUS
 10
0.0
 20
210.0
 11
297.0
 21
210.0
  0
LINE
  5
249
100
AcDbEntity
  8
0
100
AcDbLine
 62
7
  6
CONTINUOUS
 10
297.0
 20
0.0
 11
297.0
 21
210.0
  0
LINE
  5
24A
100
AcDbEntity
  8
ASSI
100
AcDbLine
 62
7
  6
CONTINUOUS
 10
68.886844308
 20
120.5514366922
 11
68.886844308
 21
146.9889083438
  0
LINE
  5
24B
100
AcDbEntity
  8
ASSI
100
AcDbLine
 62
7
  6
CONTINUOUS
 10
70.7629408836
 20
123.6685133197
 11
70.7629408836
 21
122.3274523423
  0
LINE
  5
24C
100
AcDbEntity
  8
ASSI
100
AcDbLine
 62
2
  6
CENTER
 10
77.886844308
 20
149.4889083438
 11
77.886844308
 21
113.5557154018
  0
LINE
  5
24D
100
AcDbEntity
  8
GEOM
100
AcDbLine
 62
7
  6
CONTINUOUS
 10
132.0158924429
 20
72.4889083438
 11
134.386844308
 21
72.4889083438
  0
LINE
  5
24E
100
AcDbEntity
  8
0
100
AcDbLine
 62
7
  6
CONTINUOUS
 10
85.010747665
 20
130.5156043688
 11
85.0107477324
 21
131.5764029367
  0
LINE
  5
24F
100
AcDbEntity
  8
GEOM
100
AcDbLine
 62
7
  6
CONTINUOUS
 10
132.8401118512
 20
73.9889083438
 11
134.386844308
 21
73.9889083438
  0
LINE
  5
250
100
AcDbEntity
  8
ASSI
100
AcDbLine
 62
7
  6
CONTINUOUS
 10
86.886844308
 20
131.0766144581
 11
86.886844308
 21
146.9889083438
  0
LINE
  5
251
100
AcDbEntity
  8
0
100
AcDbLine
 62
7
  6
CONTINUOUS
 10
86.886844308
 20
131.0766144581
 11
86.886844308
 21
146.9889083438
  0
LINE
  5
252
100
AcDbEntity
  8
ASSI
100
AcDbLine
 62
2
  6
CENTER
 10
97.386844308
 20
92.4889083438
 11
97.386844308
 21
49.9889083438
  0
LINE
  5
253
100
AcDbEntity
  8
ASSI
100
AcDbLine
 62
2
  6
CENTER
 10
97.386844308
 20
92.4889083438
 11
97.386844308
 21
134.9889083438
  0
LINE
  5
254
100
AcDbEntity
  8
GEOM
100
AcDbLine
 62
7
  6
CONTINUOUS
 10
139.386844308
 20
88.4889083438
 11
159.386844308
 21
88.4889083438
  0
LINE
  5
255
100
AcDbEntity
  8
GEOM
100
AcDbLine
 62
7
  6
CONTINUOUS
 10
139.386844308
 20
91.4889083438
 11
159.386844308
 21
91.4889083438
  0
LINE
  5
256
100
AcDbEntity
  8
ASSI
100
AcDbLine
 62
2
  6
CENTER
 10
97.386844308
 20
92.4889083438
 11
54.886844308
 21
92.4889083438
  0
LINE
  5
257
100
AcDbEntity
  8
ASSI
100
AcDbLine
 62
2
  6
CENTER
 10
97.386844308
 20
92.4889083438
 11
139.886844308
 21
92.4889083438
  0
LINE
  5
258
100
AcDbEntity
  8
GEOM
100
AcDbLine
 62
7
  6
CONTINUOUS
 10
140.386844308
 20
92.4889083438
 11
158.386844308
 21
92.4889083438
  0
LINE
  5
259
100
AcDbEntity
  8
GEOM
100
AcDbLine
 62
7
  6
CONTINUOUS
 10
143.386844308
 20
93.4889083438
 11
144.886844308
 21
93.4889083438
  0
LINE
  5
25A
100
AcDbEntity
  8
GEOM
100
AcDbLine
 62
7
  6
CONTINUOUS
 10
148.636844308
 20
93.4889083438
 11
150.136844308
 21
93.4889083438
  0
LINE
  5
25B
100
AcDbEntity
  8
GEOM
100
AcDbLine
 62
7
  6
CONTINUOUS
 10
153.886844308
 20
93.4889083438
 11
155.386844308
 21
93.4889083438
  0
LINE
  5
25C
100
AcDbEntity
  8
GEOM
100
AcDbLine
 62
7
  6
CONTINUOUS
 10
139.386844308
 20
91.4889083438
 11
139.386844308
 21
88.4889083438
  0
LINE
  5
25D
100
AcDbEntity
  8
GEOM
100
AcDbLine
 62
7
  6
CONTINUOUS
 10
140.886844308
 20
80.4889083438
 11
140.886844308
 21
84.7443456973
  0
LINE
  5
25E
100
AcDbEntity
  8
GEOM
100
AcDbLine
 62
7
  6
CONTINUOUS
 10
142.386844308
 20
80.4889083438
 11
142.386844308
 21
92.4889083438
  0
LINE
  5
25F
100
AcDbEntity
  8
GEOM
100
AcDbLine
 62
7
  6
CONTINUOUS
 10
156.386844308
 20
92.4889083438
 11
156.386844308
 21
88.4889083438
  0
LINE
  5
260
100
AcDbEntity
  8
GEOM
100
AcDbLine
 62
7
  6
CONTINUOUS
 10
159.386844308
 20
91.4889083438
 11
159.386844308
 21
88.4889083438
  0
LINE
  5
261
100
AcDbEntity
  8
ASSI
100
AcDbLine
 62
7
  6
CONTINUOUS
 10
68.886844308
 20
146.9889083438
 11
86.886844308
 21
146.9889083438
  0
LINE
  5
262
100
AcDbEntity
  8
ASSI
100
AcDbLine
 62
7
  6
CONTINUOUS
 10
214.4153189143
 20
52.4889083438
 11
205.9153189143
 21
52.4889083438
  0
LINE
  5
263
100
AcDbEntity
  8
ASSI
100
AcDbLine
 62
7
  6
CONTINUOUS
 10
229.4153189143
 20
52.4889083438
 11
237.9153189143
 21
52.4889083438
  0
LINE
  5
264
100
AcDbEntity
  8
GEOM
100
AcDbLine
 62
7
  6
CONTINUOUS
 10
215.4153189143
 20
72.4889083438
 11
228.4153189143
 21
72.4889083438
  0
LINE
  5
265
100
AcDbEntity
  8
GEOM
100
AcDbLine
 62
7
  6
CONTINUOUS
 10
215.4153189143
 20
75.4889083438
 11
216.4153189143
 21
75.4889083438
  0
LINE
  5
266
100
AcDbEntity
  8
GEOM
100
AcDbLine
 62
7
  6
CONTINUOUS
 10
227.4153189143
 20
75.4889083438
 11
228.4153189143
 21
75.4889083438
  0
LINE
  5
267
100
AcDbEntity
  8
GEOM
100
AcDbLine
 62
7
  6
CONTINUOUS
 10
204.9153189143
 20
53.4892260601
 11
204.9153189143
 21
131.4885906276
  0
LINE
  5
268
100
AcDbEntity
  8
GEOM
100
AcDbLine
 62
7
  6
CONTINUOUS
 10
205.9153189143
 20
52.4889083438
 11
205.9153189143
 21
132.4889083438
  0
LINE
  5
269
100
AcDbEntity
  8
ASSI
100
AcDbLine
 62
7
  6
CONTINUOUS
 10
212.9153189143
 20
128.552429354
 11
212.9153189143
 21
146.9889083438
  0
LINE
  5
26A
100
AcDbEntity
  8
GEOM
100
AcDbLine
 62
7
  6
CONTINUOUS
 10
214.4153189143
 20
125.3871957143
 11
214.4153189143
 21
52.4889083438
  0
LINE
  5
26B
100
AcDbEntity
  8
GEOM
100
AcDbLine
 62
7
  6
CONTINUOUS
 10
215.4153189143
 20
124.4190526458
 11
215.4153189143
 21
53.4892260601
  0
LINE
  5
26C
100
AcDbEntity
  8
GEOM
100
AcDbLine
 62
7
  6
CONTINUOUS
 10
215.4153189143
 20
90.4889083438
 11
216.4153189143
 21
90.4889083438
  0
LINE
  5
26D
100
AcDbEntity
  8
GEOM
100
AcDbLine
 62
7
  6
CONTINUOUS
 10
227.4153189143
 20
90.4889083438
 11
228.4153189143
 21
90.4889083438
  0
LINE
  5
26E
100
AcDbEntity
  8
GEOM
100
AcDbLine
 62
7
  6
CONTINUOUS
 10
215.4153189143
 20
91.4889083438
 11
216.4153189143
 21
91.4889083438
  0
LINE
  5
26F
100
AcDbEntity
  8
GEOM
100
AcDbLine
 62
7
  6
CONTINUOUS
 10
227.4153189143
 20
91.4889083438
 11
228.4153189143
 21
91.4889083438
  0
LINE
  5
270
100
AcDbEntity
  8
ASSI
100
AcDbLine
 62
2
  6
CENTER
 10
240.4153189143
 20
92.4889083438
 11
201.9659665179
 21
92.4889083438
  0
LINE
  5
271
100
AcDbEntity
  8
GEOM
100
AcDbLine
 62
7
  6
CONTINUOUS
 10
215.4153189143
 20
92.4889083438
 11
216.4153189143
 21
92.4889083438
  0
LINE
  5
272
100
AcDbEntity
  8
GEOM
100
AcDbLine
 62
7
  6
CONTINUOUS
 10
227.4153189143
 20
92.4889083438
 11
228.4153189143
 21
92.4889083438
  0
LINE
  5
273
100
AcDbEntity
  8
GEOM
100
AcDbLine
 62
7
  6
CONTINUOUS
 10
215.4153189143
 20
93.4889083438
 11
216.4153189143
 21
93.4889083438
  0
LINE
  5
274
100
AcDbEntity
  8
GEOM
100
AcDbLine
 62
7
  6
CONTINUOUS
 10
227.4153189143
 20
93.4889083438
 11
228.4153189143
 21
93.4889083438
  0
LINE
  5
275
100
AcDbEntity
  8
ASSI
100
AcDbLine
 62
7
  6
CONTINUOUS
 10
216.4153189143
 20
72.4889083438
 11
216.4153189143
 21
123.6685133197
  0
LINE
  5
276
100
AcDbEntity
  8
ASSI
100
AcDbLine
 62
2
  6
CENTER
 10
221.9153189143
 20
151.9889083438
 11
221.9153189143
 21
52.5345100446
  0
LINE
  5
277
100
AcDbEntity
  8
ASSI
100
AcDbLine
 62
7
  6
CONTINUOUS
 10
227.4153189143
 20
123.6685133197
 11
227.4153189143
 21
72.4889083438
  0
LINE
  5
278
100
AcDbEntity
  8
GEOM
100
AcDbLine
 62
7
  6
CONTINUOUS
 10
228.4153189143
 20
124.4191297071
 11
228.4153189143
 21
53.4889083438
  0
LINE
  5
279
100
AcDbEntity
  8
GEOM
100
AcDbLine
 62
7
  6
CONTINUOUS
 10
229.4153189143
 20
52.4889083438
 11
229.4153189143
 21
125.3872335993
  0
LINE
  5
27A
100
AcDbEntity
  8
ASSI
100
AcDbLine
 62
7
  6
CONTINUOUS
 10
230.9153189143
 20
128.5535458054
 11
230.9153189143
 21
146.9889083438
  0
LINE
  5
27B
100
AcDbEntity
  8
GEOM
100
AcDbLine
 62
7
  6
CONTINUOUS
 10
237.9153189143
 20
132.4889083438
 11
237.9153189143
 21
52.4889083438
  0
LINE
  5
27C
100
AcDbEntity
  8
GEOM
100
AcDbLine
 62
7
  6
CONTINUOUS
 10
238.9153189143
 20
131.4885906276
 11
238.9153189143
 21
53.4892260601
  0
LINE
  5
27D
100
AcDbEntity
  8
ASSI
100
AcDbLine
 62
7
  6
CONTINUOUS
 10
212.9153189143
 20
132.4889083438
 11
205.9153189143
 21
132.4889083438
  0
LINE
  5
27E
100
AcDbEntity
  8
ASSI
100
AcDbLine
 62
7
  6
CONTINUOUS
 10
230.9153189143
 20
132.4889083438
 11
237.9153189143
 21
132.4889083438
  0
LINE
  5
27F
100
AcDbEntity
  8
ASSI
100
AcDbLine
 62
7
  6
CONTINUOUS
 10
212.9155642279
 20
146.9889083438
 11
230.9150736007
 21
146.9889083438
  0
ARC
  5
280
100
AcDbEntity
  8
ASSI
100
AcDbCircle
 62
7
  6
CONTINUOUS
 10
97.386844308
 20
92.4889083438
 40
41.0
100
AcDbArc
 50
107.569113786
 51
130.4936295369
  0
CIRCLE
  5
281
100
AcDbEntity
  8
GEOM
100
AcDbCircle
 62
7
  6
CONTINUOUS
 10
97.386844308
 20
92.4889083438
 40
40.0
  0
CIRCLE
  5
282
100
AcDbEntity
  8
GEOM
100
AcDbCircle
 62
7
  6
CONTINUOUS
 10
97.386844308
 20
92.4889083438
 40
39.0
  0
CIRCLE
  5
283
100
AcDbEntity
  8
ASSI
100
AcDbCircle
 62
7
  6
CONTINUOUS
 10
97.386844308
 20
92.4889083438
 40
36.0
  0
CIRCLE
  5
284
100
AcDbEntity
  8
GEOM
100
AcDbCircle
 62
7
  6
CONTINUOUS
 10
97.386844308
 20
92.4889083438
 40
36.0
  0
ARC
  5
285
100
AcDbEntity
  8
GEOM
100
AcDbCircle
 62
7
  6
CONTINUOUS
 10
124.386844308
 20
90.4889083438
 40
16.5
100
AcDbArc
 50
307.4370728298
 51
340.2500772044
  0
ARC
  5
286
100
AcDbEntity
  8
GEOM
100
AcDbCircle
 62
7
  6
CONTINUOUS
 10
124.386844308
 20
90.4889083438
 40
15.0
100
AcDbArc
 50
317.9484574978
 51
360.0
  0
ARC
  5
287
100
AcDbEntity
  8
GEOM
100
AcDbCircle
 62
7
  6
CONTINUOUS
 10
134.386844308
 20
80.4889083438
 40
8.0
100
AcDbArc
 50
270.0
 51
360.0
  0
ARC
  5
288
100
AcDbEntity
  8
GEOM
100
AcDbCircle
 62
7
  6
CONTINUOUS
 10
149.886844308
 20
80.9889083438
 40
7.5
100
AcDbArc
 50
90.0
 51
180.0
  0
ARC
  5
289
100
AcDbEntity
  8
GEOM
100
AcDbCircle
 62
7
  6
CONTINUOUS
 10
134.386844308
 20
80.4889083438
 40
6.5
100
AcDbArc
 50
270.0
 51
360.0
  0
ARC
  5
28A
100
AcDbEntity
  8
GEOM
100
AcDbCircle
 62
7
  6
CONTINUOUS
 10
140.386844308
 20
84.7443456973
 40
0.5
100
AcDbArc
 50
0.0
 51
160.2500772044
  0
ARC
  5
28B
100
AcDbEntity
  8
GEOM
100
AcDbCircle
 62
7
  6
CONTINUOUS
 10
155.386844308
 20
92.4889083438
 40
1.0
100
AcDbArc
 50
0.0
 51
90.0
  0
ARC
  5
28C
100
AcDbEntity
  8
GEOM
100
AcDbCircle
 62
7
  6
CONTINUOUS
 10
153.886844308
 20
92.4889083438
 40
1.0
100
AcDbArc
 50
90.0
 51
180.0
  0
ARC
  5
28D
100
AcDbEntity
  8
GEOM
100
AcDbCircle
 62
7
  6
CONTINUOUS
 10
150.136844308
 20
92.4889083438
 40
1.0
100
AcDbArc
 50
0.0
 51
90.0
  0
ARC
  5
28E
100
AcDbEntity
  8
GEOM
100
AcDbCircle
 62
7
  6
CONTINUOUS
 10
148.636844308
 20
92.4889083438
 40
1.0
100
AcDbArc
 50
90.0
 51
180.0
  0
ARC
  5
28F
100
AcDbEntity
  8
GEOM
100
AcDbCircle
 62
7
  6
CONTINUOUS
 10
144.886844308
 20
92.4889083438
 40
1.0
100
AcDbArc
 50
0.0
 51
90.0
  0
ARC
  5
290
100
AcDbEntity
  8
GEOM
100
AcDbCircle
 62
7
  6
CONTINUOUS
 10
143.386844308
 20
92.4889083438
 40
1.0
100
AcDbArc
 50
90.0
 51
180.0
  0
ARC
  5
291
100
AcDbEntity
  8
GEOM
100
AcDbCircle
 62
7
  6
CONTINUOUS
 10
140.386844308
 20
91.4889083438
 40
1.0
100
AcDbArc
 50
90.0
 51
180.0
  0
ARC
  5
292
100
AcDbEntity
  8
GEOM
100
AcDbCircle
 62
7
  6
CONTINUOUS
 10
158.386844308
 20
91.4889083438
 40
1.0
100
AcDbArc
 50
0.0
 51
90.0
  0
ARC
  5
293
100
AcDbEntity
  8
GEOM
100
AcDbCircle
 62
7
  6
CONTINUOUS
 10
237.9153189143
 20
131.4889083438
 40
1.0
100
AcDbArc
 50
0.0
 51
90.0
  0
ARC
  5
294
100
AcDbEntity
  8
GEOM
100
AcDbCircle
 62
7
  6
CONTINUOUS
 10
237.9153189143
 20
53.4889083438
 40
1.0
100
AcDbArc
 50
270.0
 51
360.0
  0
ARC
  5
295
100
AcDbEntity
  8
GEOM
100
AcDbCircle
 62
7
  6
CONTINUOUS
 10
229.4153189143
 20
53.4889083438
 40
1.0
100
AcDbArc
 50
180.0
 51
270.0
  0
ARC
  5
296
100
AcDbEntity
  8
GEOM
100
AcDbCircle
 62
7
  6
CONTINUOUS
 10
205.9153189143
 20
131.4889083438
 40
1.0
100
AcDbArc
 50
90.0
 51
180.0
  0
ARC
  5
297
100
AcDbEntity
  8
GEOM
100
AcDbCircle
 62
7
  6
CONTINUOUS
 10
205.9153189143
 20
53.4889083438
 40
1.0
100
AcDbArc
 50
180.0
 51
270.0
  0
ARC
  5
298
100
AcDbEntity
  8
GEOM
100
AcDbCircle
 62
7
  6
CONTINUOUS
 10
214.4153189143
 20
53.4889083438
 40
1.0
100
AcDbArc
 50
270.0
 51
360.0
  0
SPLINE
  5
299
100
AcDbEntity
  8
ASSI
100
AcDbSpline
 62
7
  6
CONTINUOUS
 70
0
 71
3
 72
13
 73
9
 74
0
 42
0.0000001
 43
0.0000001
 44
0.0000000001
 40
0.0
 40
0.0
 40
0.0
 40
0.0
 40
0.3053437012
 40
0.444434578
 40
0.5740705678
 40
0.6941340955
 40
0.8047385614
 40
1.0
 40
1.0
 40
1.0
 40
1.0
 10
216.4153189143
 20
123.6685133197
 30
0.0
 10
215.8873771558
 20
124.0165554365
 30
0.0
 10
215.1599262609
 20
124.5912638586
 30
0.0
 10
214.3370764675
 20
125.4510733282
 30
0.0
 10
213.8374030216
 20
126.0840151319
 30
0.0
 10
213.4386618834
 20
126.7172331722
 30
0.0
 10
213.0626007874
 20
127.5151963189
 30
0.0
 10
212.9154021613
 20
128.1497921651
 30
0.0
 10
212.9153209914
 20
128.5541624358
 30
0.0
  0
SPLINE
  5
29A
100
AcDbEntity
  8
ASSI
100
AcDbSpline
 62
7
  6
CONTINUOUS
 70
0
 71
3
 72
13
 73
9
 74
0
 42
0.0000001
 43
0.0000001
 44
0.0000000001
 40
0.0
 40
0.0
 40
0.0
 40
0.0
 40
0.3053486884
 40
0.4444406151
 40
0.5740763846
 40
0.6941390583
 40
0.8047422311
 40
1.0
 40
1.0
 40
1.0
 40
1.0
 10
227.4153189143
 20
123.6685133197
 30
0.0
 10
227.9433017585
 20
124.016582522
 30
0.0
 10
228.6708035744
 20
124.5913402926
 30
0.0
 10
229.4936985692
 20
125.4512248399
 30
0.0
 10
229.9933839247
 20
126.0842208661
 30
0.0
 10
230.3921193608
 20
126.7174915499
 30
0.0
 10
230.7681547354
 20
127.5155135555
 30
0.0
 10
230.9152951236
 20
128.1501604837
 30
0.0
 10
230.9153178827
 20
128.5545480258
 30
0.0
  0
SPLINE
  5
29B
100
AcDbEntity
  8
ASSI
100
AcDbSpline
 62
7
  6
CONTINUOUS
 70
0
 71
3
 72
10
 73
6
 74
0
 42
0.0000001
 43
0.0000001
 44
0.0000000001
 40
0.0
 40
0.0
 40
0.0
 40
0.0
 40
0.2440398034
 40
0.4933055983
 40
1.0
 40
1.0
 40
1.0
 40
1.0
 10
216.4153189143
 20
102.6583609569
 30
0.0
 10
216.8324129844
 20
101.8153119251
 30
0.0
 10
217.7015979981
 20
100.1240332023
 30
0.0
 10
219.5305248279
 20
96.7312446614
 30
0.0
 10
220.9585905432
 20
94.1914205952
 30
0.0
 10
221.9153193736
 20
92.488909164
 30
0.0
  0
SPLINE
  5
29C
100
AcDbEntity
  8
ASSI
100
AcDbSpline
 62
7
  6
CONTINUOUS
 70
0
 71
3
 72
10
 73
6
 74
0
 42
0.0000001
 43
0.0000001
 44
0.0000000001
 40
0.0
 40
0.0
 40
0.0
 40
0.0
 40
0.5066942094
 40
0.7559602113
 40
1.0
 40
1.0
 40
1.0
 40
1.0
 10
221.9153193736
 20
92.488909164
 30
0.0
 10
222.872047804
 20
94.1914198835
 30
0.0
 10
224.3001126392
 20
96.7312443753
 30
0.0
 10
226.1290396071
 20
100.1240326697
 30
0.0
 10
226.9982248854
 20
101.8153120083
 30
0.0
 10
227.4153189143
 20
102.6583609569
 30
0.0
  0
ENDSEC
  0
SECTION
  2
OBJECTS
  0
DICTIONARY
  5
29D
100
AcDbDictionary
  3
ACAD_GROUP
350
29E
  3
ACAD_MLINESTYLE
350
29F
  0
DICTIONARY
  5
29E
102
{ACAD_REACTORS
330
29D
102
}
100
AcDbDictionary
  0
DICTIONARY
  5
29F
102
{ACAD_REACTORS
330
29D
102
}
100
AcDbDictionary
  3
STANDARD
350
2A0
  0
MLINESTYLE
  5
2A0
102
{ACAD_REACTORS
330
29F
102
}
100
AcDbMlineStyle
  2
STANDARD
 70
0
  3

 62
256
 51
90.0
 52
90.0
 71
2
 49
0.5
 62
256
  6
BYLAYER
 49
-0.5
 62
256
  6
BYLAYER
  0
ENDSEC
  0
EOF
